WWE Undertaker: The Streak - Disk 1 [2012, Рестлинг, BDRip-AVC]

Страницы:  1

Ответить
Автор
Сообщение

LegendKiev

VIP (Заслуженный)

Стаж: 8 лет 8 месяцев

Сообщений: 9100

LegendKiev · 20-Сен-12 13:14 (6 лет 9 месяцев назад, ред. 20-Сен-12 15:24)



WWE Undertaker: The Streak - Disk 1

Год выпуска: 2012
Вид спорта: Рестлинг
Участники: The Undertaker & Others..
Продолжительность: 01:00:18
Коментарий: Профессиональный
Язык коментариев: Английский
Описание: The Apocalyptic Warrior who has denied salvation to twenty souls to forge an eternal streak. The dynasty of The Deadman becomes immortal in Undertaker: The Streak. Hear the tales of Shawn Michaels, Triple H, Batista, Big Show, Randy Orton and other victims who have dared to stare across the ring into the cold eyes of The Phenom. From Undertaker’s WrestleMania VII debut vs. Jimmy “Superfly” Snuka to his agonizing war with Triple H, and the illustrious opponents in between, every chilling encounter is presented here from bell-to-bell.
Качество: BDRip-AVC (ист. Blu-Ray 1080p)
Формат: MKV
Видео кодек: AVC
Аудио кодек: AC3
Видео: 720x400 (16:9), 29.970 fps, ~1900 kbps, ~0.180 bit/pixel
Аудио: 48 kHz, 2 ch, ~192 kbps
Содержание
The Beginning
Dark Days
Bad Ass
DeadMan Returns
Championship Level
Streak vs. Career
End of an Era
The Streak
Blu-ray Exclusive Content
WrestleMania XXIV
Undertaker & Edge History Package
WrestleMania XXVI
Streak vs. Career History Package
WrestleMania XXVII
Undertaker & Triple H History Package
WrestleMania XXVIII
Undertaker & Triple H History Package
The Streak in Pictures
Скриншоты
MediaInfo
Общее
Уникальный идентификатор : 202769469949025659128634849677316278208 (0x988BFAB9D7BFC832A1285D68C71547C0)
Полное имя : F:\Undertaker.The.Streak.Disk1.BDRip.x264-RTW.mkv
Формат : Matroska
Версия формата : Version 2
Размер файла : 924 Мбайт
Продолжительность : 1 ч. 0 м.
Общий поток : 2143 Кбит/сек
Дата кодирования : UTC 2012-09-20 12:18:22
Программа кодирования : mkvmerge v5.8.0 ('No Sleep / Pillow') built on Sep 2 2012 15:37:04
Библиотека кодирования : libebml v1.2.3 + libmatroska v1.3.0
Видео
Идентификатор : 1
Формат : AVC
Формат/Информация : Advanced Video Codec
Профиль формата : [email protected]
Параметр CABAC формата : Да
Параметр ReFrames формата : 16 кадров
Идентификатор кодека : V_MPEG4/ISO/AVC
Продолжительность : 1 ч. 0 м.
Битрейт : 1908 Кбит/сек
Ширина : 720 пикселей
Высота : 400 пикселей
Соотношение сторон : 16:9
Частота кадров : 29,970 кадров/сек
Цветовое пространство : YUV
Субдискретизация насыщенности : 4:2:0
Битовая глубина : 8 бит
Тип развёртки : Прогрессивная
Бит/(Пиксели*Кадры) : 0.221
Размер потока : 823 Мбайт (89%)
Библиотека кодирования : x264 core 125 r2208 d9d2288
Настройки программы : cabac=1 / ref=16 / deblock=1:-2:-1 / analyse=0x3:0x133 / me=umh / subme=11 / psy=1 / psy_rd=1.00:0.05 / mixed_ref=1 / me_range=32 / chroma_me=1 / trellis=2 / 8x8dct=1 / cqm=0 / deadzone=21,11 / fast_pskip=0 / chroma_qp_offset=-3 / threads=12 / lookahead_threads=2 / sliced_threads=0 / nr=0 / decimate=1 / interlaced=0 / bluray_compat=0 / constrained_intra=0 / bframes=12 / b_pyramid=2 / b_adapt=2 / b_bias=0 / direct=1 / weightb=1 / open_gop=0 / weightp=2 / keyint=300 / keyint_min=29 / scenecut=40 / intra_refresh=0 / rc_lookahead=40 / rc=crf / mbtree=0 / crf=21.0 / qcomp=0.70 / qpmin=0 / qpmax=69 / qpstep=4 / vbv_maxrate=14000 / vbv_bufsize=14000 / crf_max=0.0 / nal_hrd=none / ip_ratio=1.40 / pb_ratio=1.30 / aq=1:1.00
Язык : English
Default : Да
Forced : Нет
Аудио
Идентификатор : 2
Формат : AC-3
Формат/Информация : Audio Coding 3
Расширение режима : CM (complete main)
Параметр Endianness формата : Big
Идентификатор кодека : A_AC3
Продолжительность : 1 ч. 0 м.
Вид битрейта : Постоянный
Битрейт : 192 Кбит/сек
Каналы : 2 канала
Расположение каналов : Front: L R
Частота : 48,0 КГц
Битовая глубина : 16 бит
Метод сжатия : С потерями
Размер потока : 82,8 Мбайт (9%)
Язык : English
Default : Да
Forced : Нет

Релиз -
Download
Для скачивания .torrent файлов необходима регистрация
Сайт не распространяет и не хранит электронные версии произведений, а лишь предоставляет доступ к создаваемому пользователями каталогу ссылок на торрент-файлы, которые содержат только списки хеш-сумм
[Профиль]  [ЛС] 

resident_evil

Стаж: 11 лет 11 месяцев

Сообщений: 467

resident_evil · 21-Сен-12 17:58 (спустя 1 день 4 часа)

Такое громадное содержание и всего час? Жаль.
[Профиль]  [ЛС] 

Кingslayer

Стаж: 13 лет

Сообщений: 6569

Кingslayer · 21-Сен-12 19:59 (спустя 2 часа)

LegendKiev писал(а):
55309305Disk 1
resident_evil
это документальная часть без матчей.
[Профиль]  [ЛС] 

resident_evil

Стаж: 11 лет 11 месяцев

Сообщений: 467

resident_evil · 21-Сен-12 20:35 (спустя 36 мин.)

Akira
О, ну так даже интереснее, болтовню послушать я люблю. Спасибо за пояснения, качаю.
[Профиль]  [ЛС] 
 
Ответить
Loading...
Error